<?xml version="1.0" encoding="UTF-8" standalone="no"?>
<!DOCTYPE svg PUBLIC "-//W3C//DTD SVG 1.1//EN" "http://www.w3.org/Graphics/SVG/1.1/DTD/svg11.dtd">
<svg xmlns="http://www.w3.org/2000/svg">
<metadata>
This is a custom SVG webfont generated by Font Squirrel.
Copyright   : Copyright c Andrew Paglinawan 2008 All rights reserved
Designer    : Andrew Paglinawan
Foundry     : Andrew Paglinawan
</metadata>
<defs>
<font id="webfontdezzUb1h" horiz-adv-x="880">
<font-face units-per-em="2048" ascent="1638" descent="-410"/>
<missing-glyph horiz-adv-x="614"/>
<glyph unicode=" " horiz-adv-x="614"/>
<glyph unicode="&#9;" horiz-adv-x="614"/>
<glyph unicode=" " horiz-adv-x="614"/>
<glyph unicode="!" horiz-adv-x="516" d="M197 55l8 47q2 20 19.5 32.5t37.5 8.5q47 -10 41 -59l-8 -47q-2 -18 -17.5 -29.5t-31.5 -11.5h-8q-23 4 -34 21.5t-7 37.5zM250 360l182 1029q2 20 19.5 32.5t38 8t31.5 -21.5t9 -38l-182 -1028q-6 -41 -49 -41h-8q-47 10 -41 59z"/>
<glyph unicode="&quot;" horiz-adv-x="839" d="M143 944l62 440q8 53 57 54h39q33 0 33 -35q0 -2 -10 -49l-117 -412q-12 -37 -35 -37q-35 0 -29 39zM512 944l61 440q8 53 58 54h39q33 0 32 -35q0 -2 -10 -49l-117 -412q-12 -37 -34 -37q-35 0 -29 39z"/>
<glyph unicode="#" horiz-adv-x="1433" d="M96 430.5q2 20.5 19.5 34.5t38.5 14h223l166 484h-226q-20 0 -32.5 13t-8.5 34q2 20 19.5 34.5t38.5 14.5h241l113 338q14 45 60 45q25 0 32.5 -17.5t1.5 -42.5l-108 -323h424l112 338q14 45 60 45q25 0 33 -17.5t2 -42.5l-109 -323h205q20 0 31.5 -13.5t9.5 -34 t-19.5 -34.5t-38.5 -14h-221l-166 -484h224q20 0 31.5 -13t9.5 -33.5t-19.5 -35t-38.5 -14.5h-239l-117 -346q-14 -45 -60 -45q-25 0 -32.5 17.5t-1.5 41.5l112 332h-424l-116 -346q-14 -45 -60 -45q-25 0 -33 17.5t-2 41.5l113 332h-207q-20 0 -31.5 13.5t-9.5 34zM475 479 h424l166 484h-424z"/>
<glyph unicode="$" horiz-adv-x="1294" d="M129 244q4 20 23.5 35.5t40.5 15.5q23 0 32 -14q135 -164 353 -187l149 584q-219 51 -298 141t-40 244q39 156 187.5 261.5t334.5 109.5l19 77q6 20 24.5 35t39 15t30.5 -14.5t4 -35.5l-18 -81q188 -16 327 -144q23 -23 17 -47q-4 -20 -23.5 -35.5t-42.5 -15.5 q-20 0 -33 14q-115 115 -274 133l-145 -573q221 -49 303 -140.5t45 -242.5q-41 -162 -190.5 -267.5t-344.5 -111.5l-39 -160q-6 -20 -24.5 -34.5t-39 -14.5t-30.5 14.5t-4 34.5l39 162q-250 20 -412 199q-16 18 -10 43zM496 1071q-29 -111 24 -177.5t234 -111.5l139 559 q-147 -2 -257.5 -79.5t-139.5 -190.5zM668 92q152 2 266.5 81t142.5 198q27 111 -29.5 177t-236.5 109z"/>
<glyph unicode="&amp;" horiz-adv-x="1425" d="M100 393q0 39 6 82q23 119 95.5 220.5t179.5 162.5q-55 78 -55 176q0 31 6 60q25 141 138.5 238.5t256.5 99.5q131 0 215 -84t84 -211q0 -29 -6 -60q-2 -20 -19.5 -32.5t-37.5 -8.5q-20 2 -32.5 19.5t-8.5 38.5q4 33 4 43q-2 86 -55.5 139t-143.5 55q-102 2 -191.5 -74.5 t-105.5 -179.5q-4 -14 -4 -43q0 -98 68 -149q37 -31 8 -72l-4 -2l-2 -2l-4 -4q-2 -2 -5.5 -4t-5.5 -2q-106 -47 -181 -140.5t-93 -201.5q-6 -31 -6 -64q2 -129 85 -211t216 -84q154 -2 285 109.5t157 267.5q6 35 6 66v12q-18 2 -51 2q-197 0 -270 -90q-45 -49 -45 -119 q0 -8 2 -10v-2q2 -20 -10.5 -36.5t-32.5 -18.5h-8q-18 0 -32 12t-18 31q0 10 -2 24q6 111 68 184q104 125 348 125q10 0 33.5 -1t36.5 -1q2 -2 10 -2q61 0 96 33q43 37 43 111v14q-2 20 12.5 35.5t35 17.5t36 -12t17.5 -35v-20q0 -125 -80 -189q-37 -31 -88 -45v-20 q0 -47 -9 -82q-33 -193 -189.5 -326t-350.5 -135q-172 0 -289 113q-113 112 -113 282z"/>
<glyph unicode="'" horiz-adv-x="471" d="M143 1073q4 16 23 27q117 57 131 157q-53 14 -41 72l8 43q8 29 33 48.5t51 19.5q29 0 44.5 -20.5t6.5 -47.5l-10 -51q-33 -158 -98 -213q-84 -66 -123 -66q-31 0 -25 31z"/>
<glyph unicode="(" d="M188 61q-61 213 2 564q59 348 197 563q162 256 401 256q23 0 37.5 -17.5t10 -40t-24.5 -40t-43 -17.5q-162 -2 -287 -190q-119 -186 -178 -514q-55 -330 -2 -514q31 -98 82 -144.5t137 -46.5q23 0 37 -17.5t10 -39.5q-4 -25 -24.5 -41.5t-42.5 -16.5h-4q-119 0 -197 69.5 t-111 186.5z"/>
<glyph unicode=")" d="M129 -137.5q4 22.5 24.5 40t43.5 17.5q162 2 286 191q119 186 179 514q55 330 2 514q-57 190 -220 190q-23 0 -37 17.5t-10 39.5q4 25 24.5 41.5t43.5 16.5h4q119 0 196.5 -69.5t110.5 -186.5q61 -213 -2 -563q-59 -348 -196 -564q-162 -256 -402 -256q-23 0 -37 17.5 t-10 40z"/>
<glyph unicode="*" d="M160 991q6 27 35 39l229 100l-193 101q-29 14 -22 39q8 39 49 43q12 0 31 -13l164 -126l22 223q2 18 16.5 31.5t33 13.5t27.5 -13.5t5 -31.5l-55 -223l209 126q18 12 34.5 12.5t26.5 -13t6 -29.5q-4 -27 -35 -39l-229 -101l193 -100q27 -12 22 -39q-4 -16 -18.5 -29.5 t-30.5 -13.5q-12 0 -31 13l-164 126l-22 -223q-2 -18 -16.5 -31.5t-33 -13.5t-27.5 13.5t-5 31.5l55 223l-209 -126q-18 -12 -34.5 -12.5t-26.5 13t-6 29.5z"/>
<glyph unicode="+" horiz-adv-x="1269" d="M131 712.5q0 28.5 20.5 48t47.5 19.5h379l67 379q4 29 27.5 44.5t50.5 8.5q27 -4 42 -26.5t11 -48.5l-63 -357h356q27 0 46.5 -19.5t19.5 -48t-19.5 -48t-46.5 -19.5h-379l-67 -379q-10 -55 -66 -55h-12q-27 6 -42.5 28.5t-10.5 49.5l61 356h-354q-27 0 -47.5 19.5 t-20.5 48z"/>
<glyph unicode="," horiz-adv-x="471" d="M115 -182q4 16 22 26q117 57 131 158q-53 14 -41 72l9 43q8 29 32.5 48t50.5 19q29 0 44.5 -20.5t7.5 -46.5l-11 -51q-33 -158 -98 -213q-84 -66 -123 -66q-30 0 -24 31z"/>
<glyph unicode="-" horiz-adv-x="835" d="M135 713q0 37 39 37h436q39 0 39 -37q0 -18 -11 -29.5t-28 -11.5h-436q-39 0 -39 41z"/>
<glyph unicode="." horiz-adv-x="471" d="M180 119q10 49 48 83t87 34q51 0 79 -34t18 -83q-10 -51 -47 -85t-88.5 -34t-79 34t-17.5 85z"/>
<glyph unicode="/" horiz-adv-x="1024" d="M-2 70l559 1327q23 43 66 26q20 -8 27 -26.5t-1 -38.5l-559 -1327q-12 -31 -45 -31q-14 0 -20 2q-45 23 -27 68z"/>
<glyph unicode="0" horiz-adv-x="1454" d="M133 547q0 80 17 178q53 293 225 496q182 213 387 213q182 0 293 -162q102 -152 102 -385q0 -80 -16 -178l-49 8l49 -8q-49 -285 -226 -496q-182 -213 -387 -213h-2q-178 0 -290 164q-103 154 -103 383zM233 547q0 -203 86 -328q82 -119 209 -119q162 0 312 179 q156 182 202 446q14 80 15 162q0 203 -86 327q-82 119 -209 119q-162 0 -311 -176q-158 -186 -203 -448q-15 -78 -15 -162z"/>
<glyph unicode="1" horiz-adv-x="686" d="M74 1194q-23 45 20 68l309 165v3q4 0 7 2h4l4 2h6h4h4h2q2 0 4 -2h4l4 -2l5 -3l4 -2l4 -4l4 -4q0 -2 4 -2q0 -4 2 -4q0 -2 2 -4v-2q2 0 2 -4l2 -2v-2v-4v-7q2 -2 0 -4v-6l-235 -1335q-8 -41 -50 -41q-4 0 -8 2q-20 2 -32.5 19.5t-8.5 37.5l217 1231l-217 -116 q-10 -6 -22 -7q-29 0 -45 27z"/>
<glyph unicode="2" horiz-adv-x="1208" d="M97 58.5q3 21.5 20 33.5l774 604q86 68 133 160t47 184q0 102 -55 179q-86 117 -246 116q-143 0 -270 -96l-80 -65q-16 -12 -38 -9.5t-34 19t-10 37t18 32.5l82 64q152 119 332 119q211 0 326 -158q76 -102 75 -238q-2 -117 -59 -229.5t-160 -192.5l-659 -516h659 q20 0 36 -14t16 -34.5t-14.5 -36t-37.5 -15.5h-798h-4h-3q-27 0 -41 21q-12 14 -9 35.5z"/>
<glyph unicode="3" horiz-adv-x="1249" d="M154 178.5q4 20.5 20 36.5q18 14 40 14t34 -14q92 -111 249.5 -111t293.5 111q133 115 159 272q27 162 -63 271q-92 113 -252 112q-23 0 -37 21h-2q-29 37 12 74l422 366h-549q-20 0 -33.5 14.5t-9.5 37t22.5 37t39.5 14.5h669q23 0 34 -15.5t7 -36.5q0 -10 -8 -22 t-14 -17l-438 -380q141 -31 221 -132q119 -139 82 -344q-33 -203 -203 -344q-172 -143 -369 -143h-2q-201 0 -317 143q-12 15 -8 35.5z"/>
<glyph unicode="4" horiz-adv-x="1359" d="M117 311q-35 37 0 72l1018 1038q2 0 2 2q2 0 6 4q0 2 4 3q0 2 4 2l2 2h2q4 0 6 2h4h4h9h2q12 -4 18 -9l4 -4q2 -2 4 -2l2 -2l4 -4v-2l2 -4q2 0 3 -4q2 0 2 -4q0 -2 2 -4v-6v-5v-10l-174 -979h88q20 0 35.5 -14t15.5 -34.5t-15.5 -36t-35.5 -15.5h-105l-45 -254 q-8 -41 -49 -41q-6 0 -8 2q-20 2 -32.5 19.5t-8.5 37.5l41 236h-772h-2h-2q-21 0 -35 14zM270 397h676l148 838z"/>
<glyph unicode="5" horiz-adv-x="1239" d="M129 181.5q2 21.5 18 35.5q43 31 74 -8q86 -109 244 -109q162 0 297 117q82 70 127 161t45 183q0 117 -70 199q-86 109 -243 108q-162 0 -297 -116q-16 -14 -38 -12.5t-36 18.5q-10 14 -10 28q-4 10 0 23l174 584q6 20 26 30q10 8 27 9h668q23 0 38 -15.5t15 -36 t-15.5 -36t-37.5 -15.5h-633l-125 -418q123 59 244 60q205 0 323 -146q92 -113 92 -264q0 -115 -54 -226.5t-153 -197.5q-168 -139 -364 -139q-203 0 -324 145q-14 17 -12 38.5z"/>
<glyph unicode="6" horiz-adv-x="1314" d="M131 403q0 20 2 31v6q25 350 211 635q229 348 590 363q20 2 35.5 -12.5t15.5 -34.5q2 -20 -12.5 -36t-34.5 -18q-305 -10 -510 -317q-59 -94 -111 -219q162 150 369 149q174 0 293 -114q115 -115 115 -285q0 -25 -9 -82l-49 8l49 -8q-35 -195 -193.5 -329t-354.5 -136 q-176 0 -291 114.5t-115 284.5zM231 403q2 -131 86 -214t220 -85q156 -2 290 112t160 269q6 35 6 66q-2 131 -86 214t-221 85h-2q-156 0 -288 -112.5t-158 -268.5q-7 -33 -7 -66z"/>
<glyph unicode="7" horiz-adv-x="1202" d="M140 40.5q-5 20.5 5 37.5l752 1257h-684q-20 0 -34.5 15.5t-14.5 36t14.5 35t34.5 14.5h772h4h6q0 -2 4 -2q2 0 5 -2q4 0 6 -2h2v-3l2 -2h4l2 -2v-2l4 -4l2 -2l4 -4q0 -4 2 -4q0 -4 2 -6v-4q0 -2 2 -4v-7v-4q0 -4 -2 -4v-6q0 -2 -2 -4v-2q-2 -2 -2 -4l-2 -2l-797 -1333 q-12 -25 -43 -25q-14 0 -24 8q-19 10 -24 30.5z"/>
<glyph unicode="8" horiz-adv-x="1290" d="M113 391q0 47 8 82q27 145 127 260t239 164l-14 14q-72 72 -72 181q0 35 5 53q23 121 121 204t221 85q113 0 186 -74q72 -72 72 -180q0 -35 -5 -54q-29 -154 -163 -235q59 -29 106 -74q113 -113 113 -280q0 -41 -6 -80q-35 -190 -190.5 -322.5t-348.5 -134.5 q-170 0 -287 113q-112 112 -112 278zM170 465l47 -8q-6 -35 -6 -66q2 -127 85 -209t216 -84q152 -2 283 109.5t157 265.5q6 35 6 64q-2 129 -83.5 210.5t-217.5 83.5q-152 0 -282.5 -111.5t-157.5 -262.5zM453 1135l49 -9q-2 -12 -2 -34q0 -68 43 -111t116 -45 q84 -2 158 61.5t88 147.5q2 12 2 35q0 68 -43 110.5t-116 44.5q-84 2 -158 -61.5t-88 -147.5z"/>
<glyph unicode="9" horiz-adv-x="1314" d="M135 887q0 43 6 82q35 195 195 329t354 136q176 0 291 -115q115 -111 115 -285v-28v-9q-29 -352 -213 -632q-229 -350 -588 -365h-2q-20 0 -34.5 14.5t-16.5 34.5q0 20 14 35.5t35 15.5q307 14 508 320q66 98 110 217q-160 -145 -368 -150q-176 0 -291 115 q-115 111 -115 285zM193 961l49 -9q-6 -35 -6 -65q2 -131 84.5 -214t220.5 -85q156 -2 289 111.5t159 269.5q6 35 6 65q-2 131 -85 214t-220 85q-156 2 -289 -111.5t-159 -269.5z"/>
<glyph unicode=":" horiz-adv-x="491" d="M186 70q4 31 30 52t54 21q31 0 48.5 -21.5t13.5 -51.5q-6 -29 -31 -50.5t-55.5 -21.5t-48 21.5t-11.5 50.5zM377 1153q4 31 29.5 52.5t56.5 21.5q29 0 47 -21.5t12 -52.5q-4 -31 -29.5 -52.5t-56 -21.5t-48 21.5t-11.5 52.5z"/>
<glyph unicode=";" horiz-adv-x="491" d="M123 -180q0 16 18 26q113 59 113 158q-53 14 -47 72l4 43q2 29 24.5 48t51 19t46 -19.5t13.5 -47.5l-4 -51q-16 -156 -80 -213q-29 -27 -63.5 -46.5t-48.5 -19.5q-31 0 -27 31zM399 1155q4 31 29 52.5t57 21.5q29 0 46.5 -21.5t13.5 -52.5q-4 -29 -31 -50.5t-55 -21.5 q-31 0 -48.5 21.5t-11.5 50.5z"/>
<glyph unicode=";" horiz-adv-x="491" d="M123 -180q0 16 18 26q113 59 113 158q-53 14 -47 72l4 43q2 29 24.5 48t51 19t46 -19.5t13.5 -47.5l-4 -51q-16 -156 -80 -213q-29 -27 -63.5 -46.5t-48.5 -19.5q-31 0 -27 31zM399 1155q4 31 29 52.5t57 21.5q29 0 46.5 -21.5t13.5 -52.5q-4 -29 -31 -50.5t-55 -21.5 q-31 0 -48.5 21.5t-11.5 50.5z"/>
<glyph unicode="&lt;" horiz-adv-x="1269" d="M123 709v6v4q0 4 2 6v6q0 2 1 2t1 2v2l2 4q2 2 2 4q4 4 4 7l2 2l6 6l770 657q18 16 43 14.5t39 -20.5q16 -18 14.5 -43t-20.5 -41l-725 -620l500 -613q14 -20 12 -43.5t-20 -40.5q-14 -12 -37 -12q-31 0 -45 20l-539 660q0 2 -4 6v2q-4 4 -4 8l-2 2v9q-2 2 -2 4z"/>
<glyph unicode="=" horiz-adv-x="1269" d="M162 489q0 23 17.5 40.5t39.5 17.5h758q27 0 43 -17.5t16 -40.5q0 -25 -16 -42t-43 -17h-758q-23 0 -40 17t-17 42zM242 946q0 23 17 40.5t42 17.5h758q23 0 40 -17.5t17 -40.5q0 -25 -17.5 -42t-39.5 -17h-758q-25 0 -42 16t-17 43z"/>
<glyph unicode="&gt;" horiz-adv-x="1269" d="M188 65.5q2 24.5 21 38.5l725 621l-500 614q-14 18 -12 42t20.5 40.5t43 14.5t38.5 -23l539 -657q2 -2 2 -4t2 -4q4 -8 4 -11q2 0 2 -2q0 -4 2 -8v-2v-6v-6q0 -2 -2 -4v-7q0 -2 -1 -2t-1 -2t-2 -2v-4q-2 -2 -2 -4q-4 -4 -4 -6q-2 0 -2 -1t-2 -1q0 -2 -4 -6l-770 -658 q-14 -14 -37 -14q-27 0 -45 21q-17 18 -15 42.5z"/>
<glyph unicode="?" horiz-adv-x="1093" d="M82 1180.5q-2 19.5 10 36.5q74 98 183.5 156.5t230.5 58.5q164 0 270 -107q109 -104 109 -266q0 -25 -8 -78q-31 -170 -165 -292t-306 -138l-39 -227q-6 -41 -48 -41q-6 0 -8 2q-20 2 -31.5 18t-7.5 37l45 256q0 2 2 4q4 43 48 43q143 -2 267 103.5t148 250.5q6 35 6 62 q-2 121 -78.5 198.5t-203.5 79.5q-96 0 -186.5 -48t-151.5 -130q-12 -16 -31.5 -18t-36.5 10q-16 10 -18 29.5zM221 55l8 45q4 18 20.5 29.5t35.5 9.5q20 -4 31.5 -20.5t7.5 -34.5l-9 -45q-6 -41 -47 -41q-4 0 -8 2q-18 4 -29.5 19.5t-9.5 35.5z"/>
<glyph unicode="@" horiz-adv-x="2007" d="M109 600q0 53 10 125q53 295 294.5 501t538.5 208q264 0 439 -174q172 -168 172 -429q0 -61 -13 -124q-31 -174 -135 -326l-16 -21q-16 -18 -40 -40.5t-65 -48t-84 -35.5q-29 -4 -41 -5q-63 -2 -102 48q-27 35 -27 90v24l9 49q-125 -111 -273 -110q-135 0 -223 94 q-88 96 -86 227q0 47 6 72q29 156 149.5 264.5t272.5 110.5q135 0 223 -94q86 -90 86 -228q0 -35 -6 -71q-2 -4 -2 -8.5t-2 -8.5v-6l-53 -305q0 -2 -2 -6v-4q0 -20 8 -29q6 -8 22 -8q10 0 19 2q43 8 85 44t58 60l2 2q96 137 119 285q10 61 10 106q-2 219 -143 359.5 t-367 142.5q-256 0 -473 -184t-262 -442q-8 -49 -8 -107q0 -217 141.5 -358.5t366.5 -143.5q72 0 157 21q20 4 38 -6.5t22 -30.5q6 -20 -5 -38.5t-32 -23.5q-82 -20 -180 -20q-266 0 -438 172q-170 170 -170 428zM565 653q2 -98 59.5 -158.5t151.5 -62.5q111 -2 207 85 t117 208q4 18 4 53q-2 98 -58.5 158.5t-150.5 62.5h-4q-109 0 -204 -87t-116 -205q-6 -27 -6 -54z"/>
<glyph unicode="A" horiz-adv-x="1323" d="M125 74l737 1333q12 27 45 27q45 0 51 -41l267 -1334q1 -5 1 -10q0 -14 -8 -27q-11 -17 -32 -22h-10q-43 0 -50 41l-65 332h-658l-190 -346q-12 -27 -43 -27q-12 0 -25 6q-28 16 -28 40q0 13 8 28zM459 473h581l-153 772z"/>
<glyph unicode="B" horiz-adv-x="1216" d="M219 61l234 1334q10 41 53 41h2h313q133 0 221 -88q86 -82 86 -215q0 -31 -6 -62q-31 -174 -182 -274q68 -29 115 -76q98 -95 98 -235v-11q0 -35 -6 -72q-31 -168 -166 -283.5t-305 -117.5h-404h-2h-2h-10q-41 10 -41 44q0 7 2 15zM328 102h348h5q126 0 234 94 q111 95 134 224q6 27 6 55q-2 106 -71 175t-181 71h-367zM455 823h258h5q105 0 196 78q93 80 110 186q4 16 4 46q-2 90 -58.5 145t-148.5 57h-276z"/>
<glyph unicode="C" horiz-adv-x="1472" d="M150 604q0 70 10 121q53 297 301 502t551 207q256 0 434 -158q17 -15 17 -39q0 -20 -13 -33q-17 -20 -36 -19q-16 0 -34 15q-150 133 -368 133h-6q-261 0 -481 -183q-222 -185 -267 -441q-8 -49 -8 -105q0 -219 146.5 -360.5t379.5 -143.5q223 0 424 136q16 12 31 11 q21 0 39 -24q12 -16 12 -30q0 -21 -25 -39q-225 -154 -481 -154q-272 0 -450 172q-176 172 -176 432z"/>
<glyph unicode="D" horiz-adv-x="1472" d="M217 57l236 1334q2 18 16 29.5t33 11.5h2h266q266 0 438 -172q170 -170 170 -429q0 -53 -10 -124q-53 -295 -295 -501t-538 -208h-267h-2h-8q-42 9 -42 49q0 4 1 10zM328 98h207h5q253 0 468 184q217 185 262 441q8 49 8 108q-2 217 -142.5 357.5t-365.5 142.5h-225z"/>
<glyph unicode="E" horiz-adv-x="1214" d="M217 55l236 1334q6 41 51 41h2h735q20 0 34.5 -15.5t14.5 -36t-14 -35t-35 -14.5h-696l-101 -567h594q20 0 34.5 -14.5t14.5 -35t-14 -35.5t-35 -15h-612l-100 -566h680q20 0 34.5 -15t14.5 -35.5t-14.5 -35t-34.5 -14.5h-736h-2h-2h-8q-42 9 -42 48q0 5 1 11z"/>
<glyph unicode="F" horiz-adv-x="1228" d="M219 63l234 1334q6 41 51 41h4h733q20 0 34.5 -15.5t14.5 -36t-14 -35t-35 -14.5h-696l-101 -567h594q20 0 34.5 -14.5t14.5 -35t-14 -35.5t-35 -15h-610l-111 -625q-2 -18 -16 -29.5t-33 -11.5h-10q-41 10 -41 44q0 7 2 15z"/>
<glyph unicode="G" horiz-adv-x="1638" d="M150 608q0 59 12 121q35 195 159.5 357.5t308 257t384.5 94.5q256 0 434 -158q17 -15 17 -38q0 -19 -13 -34q-14 -16 -34.5 -17t-37.5 13q-147 133 -366 133h-6q-261 0 -482 -183q-223 -185 -266 -441q-10 -61 -10 -105q2 -219 148.5 -360.5t379.5 -143.5q211 0 408 125 l71 412h-378q-20 0 -35 14.5t-15 35t14.5 35.5t35.5 15h434h2q8 0 10 -2q20 -2 32.5 -19.5t8.5 -37.5l-86 -487q0 -6 -4 -15q0 -2 -2 -2v-2q-10 -14 -17 -18q-223 -154 -479 -154q-274 0 -450 172q-178 172 -178 432z"/>
<glyph unicode="H" horiz-adv-x="1556" d="M217 53l236 1333q2 20 19 33q13 9 28 9q5 0 10 -1q20 -2 32.5 -19t8.5 -38l-107 -608h736l110 624q2 20 20 33q13 9 28 9q5 0 10 -1q20 -2 32 -19q9 -13 10 -28q0 -5 -1 -10l-236 -1333q-2 -18 -16.5 -29.5t-32.5 -11.5h-8q-20 2 -32.5 19.5t-8.5 37.5l106 609h-735 l-111 -625q-6 -41 -49 -41h-8q-20 2 -32.5 19.5t-8.5 37.5z"/>
<glyph unicode="I" horiz-adv-x="624" d="M231 53l236 1333q2 20 19 33q13 9 28 9q5 0 10 -1q20 -2 32.5 -19t8.5 -38l-235 -1333q-6 -41 -49 -41h-9q-20 2 -32.5 19.5t-8.5 37.5z"/>
<glyph unicode="J" horiz-adv-x="1216" d="M90 348q0 17 10 31q12 16 33 20t38 -9t19 -34q16 -115 100.5 -186.5t211.5 -71.5h5q159 0 294 115q137 117 166 279l157 897q2 20 20 32q13 9 28 10q5 0 10 -1q20 -2 32 -20q9 -13 10 -28q0 -5 -1 -10l-158 -897q-37 -201 -200 -339t-363 -138h-2q-160 0 -274 97 q-58 50 -97 117t-39 136z"/>
<glyph unicode="K" horiz-adv-x="1464" d="M217 61l236 1334q2 20 19 32q13 9 28 10q5 0 10 -1q20 -2 32.5 -19.5t8.5 -38.5l-143 -819l1017 866q12 11 29 11h6q20 -2 35 -17q13 -13 13 -30q0 -25 -19 -41l-651 -555l460 -713q12 -16 7 -36.5t-21 -33.5q-12 -6 -27 -6q-29 0 -43 23l-454 702l-379 -323h-2l-64 -361 q-6 -41 -49 -41h-8q-20 2 -32.5 19.5t-8.5 37.5z"/>
<glyph unicode="L" horiz-adv-x="1267" d="M217 55l236 1334q2 20 19 32q13 9 28 10q5 0 10 -1q20 -2 32.5 -19.5t8.5 -38.5l-225 -1276h678q20 0 35.5 -14t15.5 -34.5t-14.5 -35t-36.5 -14.5h-734h-2h-2h-8q-20 2 -32.5 19.5t-8.5 37.5z"/>
<glyph unicode="M" horiz-adv-x="1777" d="M217 55l236 1334q4 18 18 30q12 11 28 11h5q4 1 7 0q24 0 40 -25l381 -705l639 713q14 17 31 17h8q3 2 5.5 2t4.5 -2q20 -2 33 -20q9 -13 9 -28q0 -5 -1 -10l-236 -1333q-6 -41 -49 -41h-8q-20 2 -32.5 19.5t-8.5 37.5l207 1166l-571 -635q-12 -16 -37 -17h-2h-4 q-31 0 -43 27l-349 639l-211 -1196q-2 -18 -16 -29.5t-33 -11.5h-10q-20 2 -32.5 19.5t-8.5 37.5z"/>
<glyph unicode="N" horiz-adv-x="1617" d="M217 61l234 1328l2 2q0 23 24 41q15 8 28 7q24 0 40 -28l659 -1210l209 1188q2 20 19.5 32.5t37.5 8.5q42 -9 42 -49q0 -5 -1 -11l-233 -1325q-2 -18 -17.5 -29.5t-31.5 -11.5h-8q-23 2 -37 25q0 4 -4 8l-654 1200l-211 -1192q-6 -41 -49 -41h-8q-20 2 -32.5 19.5 t-8.5 37.5z"/>
<glyph unicode="O" horiz-adv-x="1740" d="M150 592q0 66 12 133q53 295 282.5 501t511.5 208q250 0 412 -172q160 -170 160 -422q0 -66 -12 -133l-50 10l50 -10q-53 -295 -284 -501t-511 -206q-252 0 -412 170q-159 166 -159 422zM250 592q2 -215 133 -353.5t338 -140.5q240 0 445.5 184.5t250.5 442.5 q10 66 10 115q-2 215 -133 353t-338 140h-4q-238 0 -442.5 -184t-249.5 -442q-10 -66 -10 -115z"/>
<glyph unicode="P" horiz-adv-x="1193" d="M217 59l236 1334q2 18 16 29.5t33 11.5h2h403q152 0 252 -101q98 -94 98 -246q0 -35 -6 -71q-31 -168 -167 -284t-304 -118h-364l-101 -573q-6 -41 -49 -41q-6 0 -8 2q-20 2 -32.5 19.5t-8.5 37.5zM434 715h346h6q124 0 234 93q113 95 133 224q4 18 4 55 q0 109 -68.5 176.5t-181.5 69.5h-364z"/>
<glyph unicode="Q" horiz-adv-x="1728" d="M199 723q53 301 291.5 515t523.5 216q188 -2 329.5 -100.5t202.5 -266.5q39 -107 39 -226q0 -67 -12 -138q-39 -219 -188.5 -401.5t-350.5 -268.5l-223 -94q61 -12 115 -49q160 -104 286 -105q129 0 283 101q18 14 38.5 12t31.5 -20q7 -13 6 -25q0 -25 -29 -47 q-176 -121 -344 -121h-2q-156 0 -336 117q-66 45 -162 45q-61 0 -119.5 -16.5t-78.5 -28.5h-2q-31 -16 -56 4h-2q-10 16 -12 22q-2 8 -2 16q0 35 41 54l205 86q-250 35 -385 241q-100 153 -101 342q1 66 13 136zM299 723q-11 -63 -11 -121q0 -182 106 -320 q140 -183 382 -184q240 0 445.5 183.5t251.5 441.5q12 66 11 126q0 182 -106 319q-141 183 -383 184q-240 0 -444.5 -183.5t-251.5 -445.5z"/>
<glyph unicode="R" horiz-adv-x="1280" d="M188 59l236 1334q6 41 51 41h2h402q156 0 251 -101q100 -96 101 -246q0 -35 -6 -71q-23 -123 -105 -220.5t-196 -146.5q158 -95 157 -264q0 -27 -4 -72q-14 -74 -14 -125q0 -49 10 -65h7q33 0 46 -37q6 -20 -4 -37.5t-30 -23.5q-4 -4 -23 -5h-2q-45 0 -74 41 q-31 43 -30 127q0 59 14 144q6 25 6 49q-2 102 -94 172q-57 41 -137 61h-4h-359l-100 -573q-8 -41 -49 -41q-6 0 -11 2q-20 2 -32.5 19.5t-8.5 37.5zM408 715h344h5q126 0 235 93q112 95 134 224q4 37 4 55q-2 109 -70.5 176.5t-180.5 69.5h-363z"/>
<glyph unicode="S" horiz-adv-x="1366" d="M154 266q14 14 32.5 16.5t30.5 -10.5q197 -182 430 -182q182 0 328 94q139 90 158 211q3 19 3 37q0 89 -83 154q-94 72 -308 114h-4q-207 41 -311 119q-106 79 -105 195q0 26 5 53q27 158 192 264q158 102 357 103q86 0 170 -29t129 -57.5t110 -77.5q17 -12 17 -28 q0 -15 -15 -34q-20 -22 -39 -22l-26 10q-68 49 -107 73.5t-110.5 50.5t-143.5 26q-166 0 -301 -86q-127 -84 -145 -193q-3 -17 -3 -33q0 -81 77 -139q96 -72 282 -107h4q221 -43 336 -129q113 -85 114 -210q0 -26 -5 -54q-31 -172 -209 -282q-172 -113 -383 -113 q-270 2 -481 205q-11 9 -12 26q1 20 16 35z"/>
<glyph unicode="T" horiz-adv-x="1327" d="M102 1386.5q0 20.5 14.5 35t35.5 14.5h964q20 0 34.5 -14.5t14.5 -35t-14 -36t-35 -15.5h-440l-227 -1292q-8 -41 -50 -41q-6 0 -8 2q-20 2 -32.5 19.5t-8.5 37.5l223 1274h-421q-20 0 -35 15.5t-15 36z"/>
<glyph unicode="U" horiz-adv-x="1667" d="M215 489q0 43 10 101l142 805q2 20 19 32q13 9 28 10q5 0 10 -1q42 -9 42 -49q0 -5 -1 -11l-141 -803q-8 -39 -9 -84q2 -168 111 -276.5t285 -110.5h5q196 0 363 144q170 145 203 344l143 805q2 20 20 32q13 9 28 10q5 0 10 -1q42 -9 41 -49v-11l-144 -803 q-43 -238 -237.5 -403.5t-431.5 -167.5h-2q-211 0 -355 139q-139 139 -139 348z"/>
<glyph unicode="V" horiz-adv-x="1536" d="M123 1374q-2 7 -2 14q0 13 7 24q11 17 32 22q8 2 15 2q12 0 23 -6q17 -10 21 -31l297 -1217l735 1229q10 18 31 24q7 2 13 1q13 0 24 -6q18 -10 23 -31q2 -7 2 -14q0 -13 -7 -25l-796 -1333l-2 -2l-7 -7q0 -2 -1 -2t-1 -2l-2 -2q-4 0 -4 -2l-2 -2h-2l-4 -2q-2 -2 -4 -2 h-2q-4 -2 -12.5 -2t-12.5 2h-2q-8 4 -10 6h-2q0 2 -2 2t-4 2l-2 2l-6 7q-4 6 -8 18z"/>
<glyph unicode="W" horiz-adv-x="2256" d="M129 1370q-2 8 -2 16q0 34 39 46q6 1 11 1q14 0 27 -8q17 -10 21 -30l299 -1217l520 873q16 25 46 24q18 2 33.5 -9t19.5 -28l211 -860l733 1229q10 18 31 24q7 2 13 1q13 0 26 -7q26 -17 25 -39q0 -14 -9 -30l-797 -1333l-2 -3l-6 -6q0 -2 -1 -2t-1 -2q-2 0 -6 -4l-2 -2 h-2q-2 -2 -8 -2l-2 -2h-9q-2 0 -2 -1t-2 -1t-6 1t-6 1h-2q-8 4 -10 6h-2q-4 4 -7 4l-2 2q-4 4 -4 6q-2 0 -2 2q-4 4 -4 7q-2 2 -2 5t-2 5l-211 866l-526 -880l-2 -3q0 -4 -6 -6q0 -2 -1 -2t-1 -2q-2 0 -7 -4q-2 0 -2 -1t-2 -1q-2 -2 -8 -2l-2 -2h-8h-2l-2 -2q-2 0 -6 1t-6 1 h-3q-8 4 -10 6h-2q-4 4 -6 4l-2 2q-4 4 -4 6q-2 0 -2 2q-4 4 -8 17z"/>
<glyph unicode="X" horiz-adv-x="1478" d="M168 80l582 641l-353 635q-10 18 -4 37.5t23 29.5q18 10 38.5 5t30.5 -23l336 -606l557 614q14 16 35 18h3q19 0 32 -14q17 -15 17 -38q0 -20 -13 -33l-580 -639l353 -635q8 -15 7 -29q0 -25 -28 -41q-12 -6 -24 -6q-29 0 -43 27l-336 606l-557 -617q-16 -16 -39 -16 q-18 0 -33 14q-20 17 -19 36q0 17 15 34z"/>
<glyph unicode="Y" horiz-adv-x="1236" d="M121 1394q6 19 22 29q18 10 39 5t31 -23l338 -612l563 620q14 16 35 18h3q19 0 34 -14q20 -17 19 -36q0 -16 -15 -33l-602 -664l-113 -645q-2 -18 -17.5 -29.5t-31.5 -11.5h-10q-20 2 -32.5 19.5t-8.5 37.5l114 643l-364 658q-6 12 -6 23q0 8 2 15z"/>
<glyph unicode="Z" horiz-adv-x="1366" d="M145 45v2l2 2v6v4q2 2 3 7q2 0 2 4q2 0 2 4l4 4q0 2 2 2l1132 1249h-860q-23 0 -37 15.5t-14 36t15.5 35t35.5 14.5h975h2h6q2 0 4 -3h4l2 -2q4 0 5 -2h2q4 -4 6 -4l2 -2q4 -4 4 -6q2 0 2 -1t2 -1q0 -4 2 -4l2 -4q0 -4 2 -4v-6q2 0 2 -5v-6v-4v-4q-2 -2 -2 -6l-2 -4 q0 -2 -2 -4q0 -4 -2 -4l-2 -4q-2 -2 -2 -4l-1135 -1250h862q20 0 35 -14t15 -34.5t-14.5 -36t-35.5 -15.5h-974h-2q-2 0 -4.5 1t-4.5 1h-4q-2 2 -4 2t-2 1t-2 1l-4 2l-4 4q-2 0 -4 2l-4 4q0 2 -1 2t-1 2q-2 0 -2 5q-2 2 -2 4q-2 2 -2 4l-3 4v6z"/>
<glyph unicode="[" d="M207 -213l334 1593q4 20 23.5 37t41.5 17h475q14 0 24.5 -11.5t6.5 -27.5q-2 -14 -17.5 -26.5t-31.5 -12.5h-434l-322 -1544h434q14 0 23.5 -11.5t5.5 -27.5q-2 -14 -16.5 -26.5t-30.5 -12.5h-475q-20 0 -32.5 15t-8.5 38z"/>
<glyph unicode="\" horiz-adv-x="1024" d="M30 1400.5q7 18.5 27 26.5q43 16 66 -26l559 -1327q18 -45 -27 -68q-6 -2 -20 -2q-33 0 -45 31l-559 1327q-8 20 -1 38.5z"/>
<glyph unicode="]" d="M117 -227q2 14 17.5 26.5t31.5 12.5h434l322 1544h-435q-14 0 -23 11t-5 28q2 14 16 26.5t31 12.5h475q20 0 32.5 -15.5t8.5 -38.5l-334 -1593q-4 -20 -23.5 -36.5t-41.5 -16.5h-476q-14 0 -24 11.5t-6 27.5z"/>
<glyph unicode="^" horiz-adv-x="1024" d="M166 1022q0 10 14 27l336 360q37 37 64 37h16q29 0 51 -37l209 -360q6 -12 6 -27q-4 -23 -35 -23q-53 0 -69 29l-189 322l-303 -322q-27 -29 -76 -29q-12 0 -19 7.5t-5 15.5z"/>
<glyph unicode="_" horiz-adv-x="1228" d="M-41 -283q4 18 21.5 31.5t35.5 13.5h1237q18 0 27.5 -13t5.5 -32q-6 -18 -23.5 -31.5t-35.5 -13.5h-1237q-18 0 -27.5 13.5t-3.5 31.5z"/>
<glyph unicode="`" horiz-adv-x="1024" d="M336 1434q2 16 32.5 31.5t59.5 15.5q33 0 51 -37l101 -191q6 -10 4 -22q0 -18 -29 -19q-37 0 -61 27l-142 158q-18 23 -16 37z"/>
<glyph unicode="a" horiz-adv-x="1267" d="M82 416q0 51 8 92q37 205 195.5 347t355.5 144q174 0 289 -120q37 -41 59 -82l29 161q4 20 19 32q13 10 30 10q3 0 6 -1q20 -4 31.5 -20t9.5 -37l-160 -901q-6 -41 -49 -41h-8q-20 4 -31.5 20.5t-7.5 36.5l23 131q-166 -184 -400 -188q-174 0 -288 121q-111 117 -111 295 zM178 416q2 -139 86 -227.5t217 -90.5h5q153 0 287 119q136 121 165 291q6 39 6 76q-2 139 -85 227t-218 90h-2q-156 0 -290 -121t-163 -288q-8 -35 -8 -76z"/>
<glyph unicode="b" horiz-adv-x="1351" d="M197 55l233 1334q9 42 49 41h10q42 -9 42 -49q0 -5 -1 -11l-100 -559q172 184 410 188q182 0 299 -120q115 -119 114 -299q0 -49 -8 -91l-49 9l49 -9q-37 -207 -199.5 -349t-363.5 -144h-2q-180 0 -297 121q-37 41 -59 82l-29 -162q-2 -18 -17.5 -29.5t-31.5 -11.5h-10 q-41 10 -41 44q0 7 2 15zM367 416q2 -141 88 -229.5t227 -90.5h5q157 0 293 120q138 122 167 290q6 37 6 74q-2 141 -87 229t-226 90h-2q-160 0 -298.5 -122t-164.5 -288q-8 -34 -8 -73z"/>
<glyph unicode="c" horiz-adv-x="1169" d="M119 426q0 45 8 84q37 207 208 349t382 145q184 0 307 -111q18 -18 18 -36q0 -17 -16 -34q-18 -20 -36 -19q-16 0 -32 15q-96 86 -241 86h-6q-169 0 -313 -121q-146 -123 -175 -290q-6 -37 -6 -68q0 -141 95.5 -232.5t246.5 -93.5q147 0 279 90q16 10 36.5 6.5 t30.5 -20.5q10 -16 10 -30q0 -21 -22 -37q-160 -106 -334 -107q-190 0 -315 121t-125 303z"/>
<glyph unicode="d" horiz-adv-x="1351" d="M123 422q0 49 8 90q37 207 200 349.5t365 144.5q180 0 297 -121q25 -25 62 -82l102 592q4 20 22 31q15 10 31 10h7q42 -9 41 -49q0 -5 -1 -11l-235 -1333q-2 -18 -16.5 -29.5t-32.5 -11.5h-8q-23 4 -34 21.5t-7 37.5l22 129q-174 -188 -409 -188h-2q-180 0 -297 121 q-115 119 -115 299zM180 504l49 -8q-6 -39 -6 -74q2 -141 87 -229.5t227 -90.5h5q157 0 294 120q139 122 168 290q6 37 6 74q-2 141 -88 229t-226 90h-5q-157 0 -294 -120q-139 -122 -168 -289z"/>
<glyph unicode="e" horiz-adv-x="1247" d="M119 420q0 49 8 92q37 205 199.5 347t365.5 145q178 0 295 -121t117 -297q0 -16 -4 -54q0 -2 -1 -6t-1 -6q-12 -39 -47 -39h-830q-4 -20 -4 -61q0 -139 87 -228.5t226 -91.5q102 0 198.5 50.5t164.5 134.5q14 16 33.5 18t36.5 -12q20 -17 20 -35q0 -15 -14 -31 q-80 -102 -196 -162.5t-243 -60.5h-2q-178 0 -295 121q-114 119 -114 297zM248 582h758v4q-2 139 -88.5 228t-225.5 91h-6q-136 0 -259 -91q-126 -93 -179 -232z"/>
<glyph unicode="f" horiz-adv-x="741" d="M159 1006q17 14 38 14h133l18 106q29 158 107 234q80 72 215 72q20 0 31 -16q10 -13 10 -29v-7q-4 -20 -21.5 -34.5t-38.5 -14.5q-90 0 -133 -39q-47 -45 -69 -166l-19 -106h141q20 0 32.5 -14.5t8.5 -34.5q-2 -20 -19.5 -35.5t-37.5 -15.5h-141l-156 -873 q-2 -20 -19.5 -34.5t-38 -14.5t-32.5 14.5t-8 34.5l153 873h-135q-20 0 -32 15q-10 13 -9 30q0 23 22 41z"/>
<glyph unicode="g" horiz-adv-x="1351" d="M123 412q0 39 10 94q37 203 196.5 347t352.5 146q176 0 293 -120q37 -41 57 -84l29 163q9 42 45 42q5 0 10 -1q23 -4 34 -21q8 -13 8 -27q0 -5 -1 -11l-80 -453l-73 -421q-37 -195 -195 -330t-350 -137q-113 0 -205 51q-18 8 -24.5 27.5t3.5 37.5q16 25 40 26q12 0 26 -7 q74 -37 160 -37h5q149 0 281 114q135 116 162 273l17 98q-174 -184 -396 -184h-2q-176 0 -290 121q-113 117 -113 293zM221 412q2 -141 86 -228.5t221 -87.5h6q151 0 283 118q135 120 164 292q8 33 8 72q-2 143 -86 232t-221 89h-2q-152 0 -288 -122t-163 -290 q-8 -34 -8 -75z"/>
<glyph unicode="h" horiz-adv-x="1255" d="M190 45q0 8 3 10l233 1334q4 23 21 33q13 8 28 9q5 0 10 -1q20 -2 32.5 -19.5t8.5 -38.5l-86 -508q143 135 332 140q152 0 258 -103q100 -100 100 -252q0 -35 -6 -71l-98 -539q-2 -18 -16.5 -29.5t-32.5 -11.5h-10q-20 4 -31.5 20.5t-7.5 36.5l98 539q4 41 4 55 q-2 113 -72.5 182.5t-185.5 71.5h-5q-128 0 -241 -95q-115 -97 -137 -230l-98 -539v-2q-2 -2 -2 -8l-2 -2q-2 -2 -2 -7q-2 0 -2 -1t-2 -1l-2 -4l-5 -4q0 -2 -4 -2l-2 -2l-4 -4q-2 0 -4 -2h-4l-4 -2h-6h-4h-6h-5q-16 4 -24 12q-17 17 -17 35z"/>
<glyph unicode="i" horiz-adv-x="575" d="M199 55l157 908q2 20 19.5 31.5t38.5 9.5q41 -10 40 -45q0 -7 -1 -15l-160 -905q-6 -39 -47 -39h-8q-20 2 -32 19q-8 13 -8 27q0 4 1 9zM401 1212l9 48q2 18 19 30q13 9 27 9q5 0 9 -1q20 -2 33 -19q9 -13 9 -28q0 -5 -1 -10l-8 -45q-6 -41 -49 -41h-9q-20 4 -31 21 q-8 12 -9 26q0 5 1 10z"/>
<glyph unicode="j" horiz-adv-x="509" d="M-10 -339.5q0 20.5 14 33.5t35 13h4q27 0 55 24q31 26 35 58l211 1178q2 18 18.5 29.5t36.5 7.5q39 -7 39 -40q0 -7 -2 -16l-209 -1175q-12 -68 -65 -114t-123 -48q-20 0 -34.5 14.5t-14.5 35zM393 1217l6 47q4 18 21 29q12 8 24 9l9 -2q49 -10 43 -55l-11 -45 q-2 -18 -15 -29.5t-30 -11.5h-10q-18 4 -30 21q-8 12 -8 26q0 6 1 11z"/>
<glyph unicode="k" horiz-adv-x="1146" d="M195 53l235 1333q4 23 22 34q13 8 27 9q5 0 10 -2q20 -4 31.5 -20t7.5 -37l-166 -948l693 588q14 14 35.5 12t33.5 -18q15 -17 16 -34q0 -18 -20 -36l-461 -391l306 -471q12 -16 8 -37t-23 -31q-10 -8 -26 -8q-27 0 -43 22l-297 459l-248 -209q0 -2 -2 -2l-39 -229 q-10 -41 -49 -41h-10q-20 2 -32.5 19.5t-8.5 37.5z"/>
<glyph unicode="l" horiz-adv-x="509" d="M209 57l235 1334q2 20 20 32q13 9 28 10q5 0 10 -1q20 -2 32.5 -19.5t8.5 -38.5l-236 -1333q-6 -41 -49 -41h-8q-20 2 -32.5 19.5t-8.5 37.5z"/>
<glyph unicode="m" horiz-adv-x="1947" d="M195 53l96 545v2l63 358q10 41 43 41q7 0 15 -2q20 -4 31.5 -19t7.5 -36l-13 -80q137 133 324 137q156 0 252 -100q49 -49 73 -115q70 96 173.5 154.5t220.5 60.5q152 0 252 -100q98 -98 98 -246q0 -35 -6 -71l-96 -547q-6 -39 -50 -39h-8q-20 4 -31.5 20.5t-7.5 36.5 l97 545q4 41 4 55q-2 109 -71 177.5t-181 70.5q-129 0 -240 -92t-133 -221q0 -2 -2 -2v-4l-96 -547q-6 -33 -37 -39h-8h-2h-7h-4q-20 2 -31.5 19.5t-7.5 37.5l97 545q0 4 2 6q4 33 4 49q-2 109 -70.5 177.5t-183.5 70.5h-6q-126 0 -235 -93q-112 -95 -134 -226l-96 -547 q0 -6 -2 -8v-2q-2 0 -2 -2.5t-2 -4.5q0 -2 -2 -2q0 -2 -4 -6l-3 -2l-4 -4q-2 0 -2 -2q-4 0 -6 -2q-2 0 -2 -2h-6l-2 -2h-6h-4h-6h-2q-20 2 -32.5 19.5t-8.5 37.5z"/>
<glyph unicode="n" horiz-adv-x="1255" d="M195 57l96 541v2l61 358q4 20 20.5 31.5t37.5 7.5q20 -2 32.5 -18t8.5 -37l-15 -80q141 133 322 137q156 0 252 -100q98 -98 98 -246q0 -35 -6 -71l-96 -543q-6 -39 -50 -39h-6q-20 4 -31.5 20.5t-7.5 36.5l95 541q4 41 4 55q-2 109 -70 177.5t-182 70.5h-6 q-124 0 -233 -93q-112 -95 -134 -224l-94 -545q0 -2 -1 -4t-1 -4l-2 -2v-2q-2 -2 -2 -4l-2 -3l-2 -2q-2 -2 -2 -4q-2 0 -3 -2l-4 -4q-2 0 -2 -2q-4 0 -6 -2q-2 0 -2 -2h-6q-2 -2 -4 -2h-4h-4h-6h-5q-20 2 -31 19q-8 13 -9 28z"/>
<glyph unicode="o" horiz-adv-x="1280" d="M143 418q0 49 9 92q37 205 197.5 348t357.5 146q174 0 290 -123q111 -115 111 -295q0 -51 -8 -94l-47 10l47 -10q-37 -205 -197 -348.5t-356 -143.5h-2q-174 0 -289 121q-113 119 -113 297zM242 418q2 -141 86 -230.5t219 -91.5h5q153 0 287 121q136 123 165 293 q8 49 8 76q-2 139 -86 228t-219 91h-5q-156 0 -291 -121.5t-163 -291.5q-6 -37 -6 -74z"/>
<glyph unicode="p" horiz-adv-x="1351" d="M195 -358l153 868l80 448q2 20 19 33q13 9 28 9q5 0 10 -1q23 -4 34 -21t7 -38l-22 -127q174 182 399 186q184 0 295 -120q117 -117 117 -297q0 -47 -8 -88q-37 -203 -198 -343.5t-357 -140.5q-180 0 -295 119q-25 20 -62 78l-102 -584q-6 -41 -49 -41h-8q-42 9 -42 49 q0 5 1 11zM440 420q2 -137 88 -223t224 -88h5q153 0 287 117q137 120 164 284q6 37 6 72q-2 141 -87 228t-224 89h-2q-154 0 -290 -120t-165 -285q-6 -41 -6 -74z"/>
<glyph unicode="q" horiz-adv-x="1351" d="M123 420q0 49 8 90q37 203 199 345t362 144q176 0 293 -120q25 -25 62 -82l28 161q2 20 20 33q13 9 27 9q5 0 11 -1q42 -9 41 -48v-11l-236 -1321q-2 -18 -17.5 -29.5t-31.5 -11.5h-8q-42 9 -42 49q0 5 1 11l98 555q-166 -184 -406 -189q-178 0 -292 121 q-117 121 -117 295zM180 502l49 -8q-6 -39 -6 -74q2 -137 88 -225.5t221 -90.5h6q157 0 291 119q137 121 166 287q6 41 6 74q-2 137 -88 225t-221 90h-5q-157 0 -292 -118q-137 -120 -166 -287z"/>
<glyph unicode="r" horiz-adv-x="899" d="M197 59l79 451v2l80 446q4 20 20 32q13 10 29 10q3 0 7 -1q20 -2 31.5 -19t7.5 -38l-35 -203q4 6 14 17q197 244 434 243q20 0 34.5 -14t14.5 -34.5t-14 -35t-35 -14.5h-4q-162 0 -321 -166q-86 -92 -162 -235l-6 -13l-78 -444q-6 -41 -49 -41q-6 0 -8 2q-20 4 -32 20 q-8 11 -8 25q0 5 1 10z"/>
<glyph unicode="s" horiz-adv-x="1007" d="M123 141q-15 15 -16 32q0 18 20 38q16 16 36.5 18t35.5 -12q123 -119 276 -119q119 0 209 60q86 57 96 127q2 11 2 21q0 52 -51 91q-59 47 -199 74l-2 2q-145 27 -217 82q-77 57 -77 143q0 19 4 39q20 115 141 195q115 72 252 72q61 0 119.5 -20.5t88 -39t77.5 -53.5 q15 -11 15 -34q0 -19 -13 -34q-14 -16 -35 -20t-35 6q-135 98 -236 98q-104 0 -190 -55q-76 -51 -86 -115q-2 -9 -2 -17q0 -45 45 -83q61 -45 182 -68l4 -2q152 -27 234 -88q83 -59 82 -149q0 -22 -4 -45q-20 -121 -150 -205q-121 -80 -270 -80q-189 2 -336 141z"/>
<glyph unicode="t" horiz-adv-x="819" d="M86 952q0 23 14.5 37.5t36.5 14.5h150l63 391q9 42 49 41h11q20 -4 31.5 -20.5t9.5 -37.5l-64 -374h258q20 0 34.5 -15.5t14.5 -36t-14 -35t-35 -14.5h-274l-133 -733q-2 -4 -2 -14q4 -51 55 -54q20 0 35.5 -14t15.5 -34.5t-15.5 -36t-35.5 -15.5q-66 0 -111 45t-45 109 q0 4 1 14t1 16l131 717h-131q-20 0 -35.5 14.5t-15.5 34.5z"/>
<glyph unicode="u" horiz-adv-x="1255" d="M170 346q0 35 6 72l96 540q4 20 21 32q14 10 31 10q3 0 6 -1q18 -4 29.5 -20t7.5 -37l-95 -543q-4 -37 -4 -53q2 -109 70 -176.5t180 -69.5h6q126 0 235 94q112 95 132 224l96 540q4 20 20 32q13 10 29 10q3 0 6 -1q20 -4 32 -20q8 -12 8 -26q0 -5 -1 -11l-94 -543 q-31 -168 -166 -281.5t-303 -115.5q-150 0 -250 100q-98 99 -98 244z"/>
<glyph unicode="v" horiz-adv-x="1191" d="M115 936q-1 6 -2 11q0 13 7 25q9 17 30 23q6 1 11 1q14 0 25 -7q16 -10 21 -31l192 -780l473 795q17 26 39 25q13 0 29 -9q16 -10 22 -31q2 -7 1 -13q0 -13 -7 -23l-534 -893q-2 0 -2 -2l-6 -7v-2l-2 -2q-2 0 -2 -2l-4 -2h-3l-2 -2l-8 -4h-2q-4 -2 -12 -2h-6l-4 2h-2 q-8 4 -11 6h-2l-4 4l-2 2l-6 7q-4 4 -4 8q-4 4 -4 8z"/>
<glyph unicode="w" horiz-adv-x="1763" d="M125 936q-2 8 -2 16q0 32 37 43q6 1 11 1q14 0 27 -7q17 -10 21 -31l193 -780l329 553q12 25 41 25h8q35 0 41 -37l136 -541l473 795q17 26 38 25q13 0 27 -9q16 -10 22 -31q2 -7 1 -13q0 -13 -6 -23l-533 -893q-2 -6 -8 -9l-2 -2v-2l-2 -2q-2 -2 -4 -2t-2 -1t-2 -1 l-8 -4h-3h-8q0 -2 -4 -2q-2 0 -5 1t-5 1h-2l-12 6h-2l-5 4l-2 2l-6 7q-4 4 -4 8q-4 8 -4 10l-133 545l-332 -559l-2 -2q0 -2 -6 -7v-2l-2 -2q-2 0 -2 -2l-4 -2h-2l-2 -2q-2 -2 -8 -2q0 -2 -3 -2h-6l-2 -2h-4h-6l-4 2h-2l-12 6h-2l-5 4l-2 2l-6 7q-4 4 -4 8q-4 8 -4 10z"/>
<glyph unicode="x" horiz-adv-x="1167" d="M142 54q0 19 14 32l383 420l-232 418q-10 16 -4 35.5t23 29.5q16 9 28 9q23 0 39 -27l213 -389l361 397q17 20 35 19q16 0 34 -15q18 -18 18 -36q0 -17 -16 -34l-383 -419l232 -416q7 -15 7 -28q0 -24 -26 -40q-12 -6 -24 -6q-29 0 -41 27l-213 389l-361 -400 q-16 -16 -36.5 -16t-32.5 14q-18 14 -18 36z"/>
<glyph unicode="y" horiz-adv-x="1204" d="M119 -279q15 26 37 27q13 0 28 -8q70 -37 156 -37h5q153 0 285 113q134 115 161 270l8 47q-141 -131 -322 -131q-152 0 -252 96q-96 96 -96 244q0 37 6 74l94 545q4 18 21 29q14 10 31 10q3 0 6 -1q41 -10 40 -42q0 -7 -1 -15l-97 -545q-4 -18 -4 -55q2 -106 71 -175 t181 -69h6q124 0 233 92q112 94 132 226l96 545q2 18 20 30q13 9 26 9q5 0 9 -1q18 -4 29 -16q12 -12 12 -27q2 -3 2 -6.5t-2 -7.5l-153 -872q-35 -195 -193.5 -329t-353.5 -136q-106 0 -201 47q-28 16 -28 41q0 13 8 28z"/>
<glyph unicode="z" horiz-adv-x="1134" d="M125 45v4q0 2 2 4v6q2 0 2 4q0 2 2 5q0 2 1 2t1 2l4 4v2l752 829h-555q-20 0 -34.5 13.5t-14.5 34t14 35t35 14.5h665h5h4q4 0 6 -3h4q2 -2 4 -2q2 -2 4 -2l4 -4l2 -2h2l2 -4l4 -4v-2l2 -2l2 -2v-2v-2l3 -2q0 -4 2 -4v-4v-7v-2v-2v-6q-2 0 -2 -4q0 -2 -3 -4q0 -4 -2 -4 q0 -4 -2 -4l-2 -4q-2 -2 -2 -4l-751 -828h555q20 0 34.5 -14t14.5 -34.5t-14.5 -35t-34.5 -14.5h-666h-2h-2q-2 2 -4 2h-4q-2 2 -6 2q0 2 -4 2q0 2 -5 2q0 2 -4 2q0 2 -1 2t-1 2l-4 4q-2 0 -2 4l-2 2h-2q0 4 -2 7v4q-2 0 -2 4v4q-2 2 -2 6z"/>
<glyph unicode="{" horiz-adv-x="983" d="M121 588q10 39 59 39q150 0 222.5 64.5t111.5 195.5l45 162q25 86 57.5 145t92 112.5t152.5 90.5t229 63q18 4 28 -5t6 -28q-10 -25 -34 -32q-229 -55 -308.5 -126t-124.5 -233l-45 -153q-37 -129 -110.5 -197t-186.5 -98q66 -25 100 -56.5t46 -91t-19 -147.5l-45 -154 q-53 -150 -11 -226.5t239 -131.5q23 -10 14 -33q-10 -41 -51 -33q-158 35 -235 91.5t-83 135t25 185.5l45 162q23 80 20.5 138t-51.5 90t-151 32q-51 0 -37 39z"/>
<glyph unicode="|" horiz-adv-x="585" d="M252 -238l321 1823q12 45 54 45q18 0 29.5 -13t7.5 -32l-322 -1823q-8 -45 -51 -45q-18 0 -29.5 13.5t-9.5 31.5z"/>
<glyph unicode="}" horiz-adv-x="983" d="M115 -252q10 25 35 33q229 55 308 125.5t124 232.5l45 154q37 129 110.5 196.5t186.5 98.5q-66 25 -99.5 56.5t-46 91t18.5 147.5l45 153q53 150 11 226.5t-239 132.5q-23 10 -14 32q10 41 51 33q158 -35 235 -91t83 -135t-25 -185l-45 -162q-23 -80 -20.5 -138.5 t51.5 -90t151 -31.5q51 0 37 -39q-10 -39 -59 -39q-150 0 -222.5 -64.5t-111.5 -195.5l-45 -162q-25 -86 -57.5 -145.5t-92 -112.5t-152.5 -90t-228 -64q-18 -4 -28.5 5.5t-6.5 27.5z"/>
<glyph unicode="~" horiz-adv-x="942" d="M174 526q0 12 4 25q29 86 67 120t95 34q41 0 135 -42t127 -42t53.5 17t38.5 60q14 29 37 29q37 0 37 -35q0 -12 -4 -24q-29 -86 -67 -120t-95 -34q-41 0 -134 42t-128 42q-33 0 -53.5 -17.5t-38.5 -60.5q-14 -29 -37 -28q-37 -1 -37 34z"/>
<glyph unicode="¢" horiz-adv-x="1189" d="M168 723l2 4q39 221 223.5 384t405.5 163h30l52 139q16 41 55 41q25 0 37 -18.5t2 -44.5l-49 -131q129 -33 235 -154q14 -18 13 -41q-10 -51 -58 -51q-25 0 -37 16q-92 109 -194 135l-330 -884q37 -6 74 -7q178 0 354 150q23 18 41 18t29.5 -14t7.5 -33q-2 -18 -21 -33 q-203 -182 -434 -182q-53 0 -80 4l-61 -164q-16 -41 -57 -40q-25 0 -36.5 18t-0.5 45l63 168q-147 55 -222 196.5t-44 315.5zM279 727q-27 -143 28 -258t170 -164l322 875h-19q-178 0 -322.5 -130t-178.5 -319v-4z"/>
<glyph unicode="£" horiz-adv-x="1318" d="M137 27q6 23 33 28l166 37l129 533h-135q-20 0 -31.5 14t-7.5 34.5t22.5 35t38.5 14.5h135l58 242q57 236 223 370q147 119 336 119q250 0 362 -190q12 -20 7 -39q-14 -49 -64 -49q-23 0 -37 18q-51 80 -116.5 122t-178.5 42q-141 0 -252 -88q-127 -102 -174 -303 l-59 -244h569q20 0 30.5 -14.5t6.5 -35t-21.5 -34.5t-37.5 -14h-570l-127 -529h725q20 0 30.5 -14t6.5 -34.5t-22.5 -34t-38.5 -13.5h-985q-25 0 -21 27z"/>
<glyph unicode="¥" horiz-adv-x="1404" d="M115 399q4 23 22.5 39.5t42.5 16.5h316l28 204h-315q-25 0 -39 16.5t-10 39.5q4 25 22.5 41t42.5 16h254l-334 574q-8 16 -1.5 37.5t22.5 31.5q18 14 38.5 11t28.5 -19l359 -616l541 616q35 41 71 8q14 -10 14.5 -31.5t-14.5 -37.5l-508 -574h258q25 0 39.5 -16.5 t10.5 -40.5q-4 -23 -22.5 -39.5t-43.5 -16.5h-315l-29 -204h315q25 0 39.5 -16.5t9.5 -39.5q-4 -25 -22 -41t-43 -16h-315l-43 -293q-4 -20 -20.5 -34.5t-37 -14.5t-33 14.5t-8.5 34.5l43 293h-315q-25 0 -39 16t-10 41z"/>
<glyph unicode="©" horiz-adv-x="1699" d="M109 713v4q0 305 217 523t526 218t524 -216t215 -521v-4q0 -305 -217 -523.5t-526 -218.5t-524 216.5t-215 521.5zM170 713q0 -283 194.5 -481.5t483.5 -198.5t485.5 199.5t196.5 484.5v4q0 283 -194.5 481.5t-483.5 198.5t-485.5 -200t-196.5 -484v-4zM485 725v4 q0 158 108.5 272.5t266.5 114.5q147 0 264 -102q18 -14 19 -37q0 -18 -13.5 -30.5t-31.5 -12.5q-14 0 -33 14q-100 86 -207 86q-121 0 -202 -89t-81 -214v-4q0 -125 83 -215t202 -90q117 0 217 90q16 10 29 10q16 0 28.5 -12t12.5 -29q0 -20 -14 -30q-127 -111 -275 -111 q-158 0 -265.5 112.5t-107.5 272.5z"/>
<glyph unicode="­" horiz-adv-x="835" d="M135 713q0 37 39 37h436q39 0 39 -37q0 -18 -11 -29.5t-28 -11.5h-436q-39 0 -39 41z"/>
<glyph unicode="®" horiz-adv-x="851" d="M70 1094v2q0 147 104.5 252.5t251.5 105.5q150 0 253 -104.5t103 -251.5v-2q0 -147 -104.5 -253t-251.5 -106q-150 0 -253 105t-103 252zM111 1094q0 -131 91 -224.5t224 -93.5t224 94.5t91 225.5v2q0 131 -91 224t-224 93t-224 -94t-91 -225v-2zM295 881 q0 -16 16.5 -16.5t16.5 16.5v178h108l2 -2q33 -8 54 -23q37 -27 36 -69q0 -51 13 -74q8 -20 28 -21h2q2 0 4.5 1t4.5 1q12 4 8 21q-4 10 -17 10l-6 10q-6 14 -6 52q0 70 -61 102q-4 0 -6 2q74 35 73 117q0 53 -36.5 91t-90.5 38h-125h-2h-2q-14 0 -14 -17v-417zM328 1090 v192h110q41 0 69 -28.5t28 -67.5t-28 -67.5t-67 -28.5h-6h-106z"/>
<glyph unicode="´" horiz-adv-x="1024" d="M414 1231q-2 12 4 22l100 191q18 37 51 37q29 0 59.5 -15.5t33.5 -31.5q2 -14 -17 -37l-141 -158q-25 -27 -62 -27q-28 1 -28 19z"/>
<glyph unicode=" " horiz-adv-x="815"/>
<glyph unicode=" " horiz-adv-x="1630"/>
<glyph unicode=" " horiz-adv-x="815"/>
<glyph unicode=" " horiz-adv-x="1630"/>
<glyph unicode=" " horiz-adv-x="542"/>
<glyph unicode=" " horiz-adv-x="407"/>
<glyph unicode=" " horiz-adv-x="270"/>
<glyph unicode=" " horiz-adv-x="270"/>
<glyph unicode=" " horiz-adv-x="202"/>
<glyph unicode=" " horiz-adv-x="325"/>
<glyph unicode=" " horiz-adv-x="90"/>
<glyph unicode="‐" horiz-adv-x="835" d="M135 713q0 37 39 37h436q39 0 39 -37q0 -18 -11 -29.5t-28 -11.5h-436q-39 0 -39 41z"/>
<glyph unicode="‑" horiz-adv-x="835" d="M135 713q0 37 39 37h436q39 0 39 -37q0 -18 -11 -29.5t-28 -11.5h-436q-39 0 -39 41z"/>
<glyph unicode="‒" horiz-adv-x="835" d="M135 713q0 37 39 37h436q39 0 39 -37q0 -18 -11 -29.5t-28 -11.5h-436q-39 0 -39 41z"/>
<glyph unicode="–" horiz-adv-x="1081" d="M141 608q2 20 20.5 37t41.5 17h704q20 0 34.5 -15.5t10.5 -38t-23.5 -38t-39.5 -15.5h-705q-23 0 -35 16.5t-8 36.5z"/>
<glyph unicode="—" horiz-adv-x="1839" d="M143 608q4 20 23.5 37t42.5 17h1462q20 0 32.5 -15.5t8.5 -38.5q-6 -23 -26.5 -38t-40.5 -15h-1463q-23 0 -34 16.5t-5 36.5z"/>
<glyph unicode="‘" horiz-adv-x="471" d="M168 1372q-8 27 7 47.5t44 20.5q27 0 51.5 -19.5t32.5 -48.5l8 -43q12 -57 -41 -72q14 -100 131 -157q18 -10 23 -27q6 -31 -25 -31q-39 0 -123 66q-63 55 -98 213z"/>
<glyph unicode="’" horiz-adv-x="471" d="M125 1073q4 16 22 27q117 57 132 157q-53 14 -41 72l8 43q8 29 32.5 48.5t51.5 19.5q29 0 44 -20.5t7 -47.5l-10 -51q-35 -158 -99 -213q-84 -66 -122 -66q-31 0 -25 31z"/>
<glyph unicode="“" horiz-adv-x="839" d="M168 1110l10 51q35 158 98 213q84 66 123 66q31 0 25 -31q-4 -16 -23 -27q-117 -57 -131 -157q53 -14 41 -72l-8 -43q-8 -29 -32.5 -48.5t-51.5 -19.5q-29 0 -44 20.5t-7 47.5zM537 1110l10 51q35 158 98 213q84 66 123 66q31 0 25 -31q-4 -16 -23 -27 q-117 -57 -131 -157q53 -14 41 -72l-8 -43q-8 -29 -33 -48.5t-51 -19.5q-29 0 -44 20.5t-7 47.5z"/>
<glyph unicode="”" horiz-adv-x="839" d="M125 1073q4 16 22 27q117 57 132 157q-53 14 -41 72l8 43q8 29 32.5 48.5t51.5 19.5q29 0 44 -20.5t7 -47.5l-10 -51q-35 -158 -99 -213q-84 -66 -122 -66q-31 0 -25 31zM494 1073q4 16 22 27q117 57 131 157q-53 14 -41 72l8 43q8 29 33 48.5t51 19.5q29 0 44.5 -20.5 t7.5 -47.5l-11 -51q-35 -158 -98 -213q-84 -66 -123 -66q-30 0 -24 31z"/>
<glyph unicode="•" horiz-adv-x="962" d="M252 719l2 4q18 102 109.5 177t191.5 75t162.5 -75t44.5 -177l-2 -4q-18 -104 -107.5 -178t-194 -74t-164.5 74t-42 178z"/>
<glyph unicode="…" horiz-adv-x="1392" d="M182 119q8 49 46 83t89.5 34t78 -34t18.5 -83q-10 -51 -50 -85t-91.5 -34t-76 34t-14.5 85zM676 119q8 49 46 83t89 34t77.5 -34t18.5 -83q-10 -51 -50 -85t-91 -34t-75.5 34t-14.5 85zM1169 119q8 49 46 83t89.5 34t78 -34t18.5 -83q-10 -51 -50 -85t-91.5 -34t-76 34 t-14.5 85z"/>
<glyph unicode=" " horiz-adv-x="325"/>
<glyph unicode=" " horiz-adv-x="407"/>
<glyph unicode="™" horiz-adv-x="1413" d="M45 1415q0 20 21 21h415q20 0 21 -21q0 -23 -21 -22h-190l-96 -555q-4 -18 -23 -19h-2q-23 4 -18 25l96 549h-182q-21 -1 -21 22zM555 842l102 573q4 18 23 19q10 0 20 -11l164 -303l275 305q6 8 16 9h4q23 -4 19 -25l-103 -573q-2 -18 -20 -19h-4q-20 4 -17 25l88 501 l-245 -274q-6 -6 -17 -6h-2q-12 0 -18 12l-150 275l-90 -514q-2 -18 -22 -19h-5q-18 2 -18 25z"/>
<glyph unicode="" horiz-adv-x="1000" d="M0 1000h1000v-1000h-1000v1000z"/>
<glyph unicode="ﬁ" horiz-adv-x="1316" d="M940 55l157 908q2 20 19.5 31.5t38.5 9.5q41 -10 40 -45q0 -7 -1 -15l-160 -905q-6 -39 -47 -39h-8q-20 2 -32 19q-8 13 -8 27q0 4 1 9zM1142 1212l9 48q2 18 19 30q13 9 27 9q5 0 9 -1q20 -2 33 -19q9 -13 9 -28q0 -5 -1 -10l-8 -45q-6 -41 -49 -41h-9q-20 4 -31 21 q-8 12 -9 26q0 5 1 10zM159 1006q17 14 38 14h133l18 106q29 158 107 234q80 72 215 72q20 0 31 -16q10 -13 10 -29v-7q-4 -20 -21.5 -34.5t-38.5 -14.5q-90 0 -133 -39q-47 -45 -69 -166l-19 -106h141q20 0 32.5 -14.5t8.5 -34.5q-2 -20 -19.5 -35.5t-37.5 -15.5h-141 l-156 -873q-2 -20 -19.5 -34.5t-38 -14.5t-32.5 14.5t-8 34.5l153 873h-135q-20 0 -32 15q-10 13 -9 30q0 23 22 41z"/>
<glyph unicode="ﬂ" horiz-adv-x="1251" d="M950 57l235 1334q2 20 20 32q13 9 28 10q5 0 10 -1q20 -2 32.5 -19.5t8.5 -38.5l-236 -1333q-6 -41 -49 -41h-8q-20 2 -32.5 19.5t-8.5 37.5zM159 1006q17 14 38 14h133l18 106q29 158 107 234q80 72 215 72q20 0 31 -16q10 -13 10 -29v-7q-4 -20 -21.5 -34.5 t-38.5 -14.5q-90 0 -133 -39q-47 -45 -69 -166l-19 -106h141q20 0 32.5 -14.5t8.5 -34.5q-2 -20 -19.5 -35.5t-37.5 -15.5h-141l-156 -873q-2 -20 -19.5 -34.5t-38 -14.5t-32.5 14.5t-8 34.5l153 873h-135q-20 0 -32 15q-10 13 -9 30q0 23 22 41z"/>
<glyph unicode="ﬃ" horiz-adv-x="2058" d="M1682 55l157 908q2 20 19.5 31.5t38.5 9.5q41 -10 40 -45q0 -7 -1 -15l-160 -905q-6 -39 -47 -39h-8q-20 2 -32 19q-8 13 -8 27q0 4 1 9zM1884 1212l9 48q2 18 19 30q13 9 27 9q5 0 9 -1q20 -2 33 -19q9 -13 9 -28q0 -5 -1 -10l-8 -45q-6 -41 -49 -41h-9q-20 4 -31 21 q-8 12 -9 26q0 5 1 10zM900 1006q17 14 38 14h133l18 106q29 158 107 234q80 72 215 72q20 0 31 -16q10 -13 10 -29v-7q-4 -20 -21.5 -34.5t-38.5 -14.5q-90 0 -133 -39q-47 -45 -69 -166l-19 -106h141q20 0 32.5 -14.5t8.5 -34.5q-2 -20 -19.5 -35.5t-37.5 -15.5h-141 l-156 -873q-2 -20 -19.5 -34.5t-38 -14.5t-32.5 14.5t-8 34.5l153 873h-135q-20 0 -32 15q-10 13 -9 30q0 23 22 41zM159 1006q17 14 38 14h133l18 106q29 158 107 234q80 72 215 72q20 0 31 -16q10 -13 10 -29v-7q-4 -20 -21.5 -34.5t-38.5 -14.5q-90 0 -133 -39 q-47 -45 -69 -166l-19 -106h141q20 0 32.5 -14.5t8.5 -34.5q-2 -20 -19.5 -35.5t-37.5 -15.5h-141l-156 -873q-2 -20 -19.5 -34.5t-38 -14.5t-32.5 14.5t-8 34.5l153 873h-135q-20 0 -32 15q-10 13 -9 30q0 23 22 41z"/>
<glyph unicode="ﬄ" horiz-adv-x="1992" d="M1692 57l235 1334q2 20 20 32q13 9 28 10q5 0 10 -1q20 -2 32.5 -19.5t8.5 -38.5l-236 -1333q-6 -41 -49 -41h-8q-20 2 -32.5 19.5t-8.5 37.5zM900 1006q17 14 38 14h133l18 106q29 158 107 234q80 72 215 72q20 0 31 -16q10 -13 10 -29v-7q-4 -20 -21.5 -34.5 t-38.5 -14.5q-90 0 -133 -39q-47 -45 -69 -166l-19 -106h141q20 0 32.5 -14.5t8.5 -34.5q-2 -20 -19.5 -35.5t-37.5 -15.5h-141l-156 -873q-2 -20 -19.5 -34.5t-38 -14.5t-32.5 14.5t-8 34.5l153 873h-135q-20 0 -32 15q-10 13 -9 30q0 23 22 41zM159 1006q17 14 38 14h133 l18 106q29 158 107 234q80 72 215 72q20 0 31 -16q10 -13 10 -29v-7q-4 -20 -21.5 -34.5t-38.5 -14.5q-90 0 -133 -39q-47 -45 -69 -166l-19 -106h141q20 0 32.5 -14.5t8.5 -34.5q-2 -20 -19.5 -35.5t-37.5 -15.5h-141l-156 -873q-2 -20 -19.5 -34.5t-38 -14.5t-32.5 14.5 t-8 34.5l153 873h-135q-20 0 -32 15q-10 13 -9 30q0 23 22 41z"/>
</font>
</defs>
</svg>
